Social Buttons AV Magazine su Facebook AV Magazine su Twitter AV Magazine RSS AV Magazine Newsletter
Top Vendite HD: novembre 2014
Top Vendite HD: novembre 2014
Classifica dei 10 Blu-ray più venduti nel mese di novembre, una puntuale elaborazione Univideo su dati GFK che racchiude le maggiori vendite in alta risoluzione dello scorso mese
Lei - High bitrate
Lei - High bitrate
BIM propone una nuova versione, denominata Hight bitrate, dell'intensa opera di Spike Jonze. Una risposta delusioni del precedente supporto BD-25
Tutti al cinema: dicembre
Tutti al cinema: dicembre
Suggerimenti e calendario completo per le uscite nei cinema italiani nel mese di dicembre. Una rubrica di AV Magazine per essere sempre aggiornati su quello che succede all'interno dei cinema italiani, consigli sui film e trailer. A voi la scelta!
Tutti gli articoli Tutte le news

Pagina 5 di 18 PrimaPrima 12345678915 ... UltimaUltima
Risultati da 61 a 75 di 263
  1. #61
    Data registrazione
    Jan 2010
    Località
    Prato
    Messaggi
    205

    x Marco Marangoni
    Ciao, un info: i cd da te citati (la guns, temple of the dog ecc) sono versioni originali o remasters?


    x maabus, Grazie per le info su i van der craaf, la versione non remaster sarà diffiicile da reperire oggi
    Hi Fi: Ampli: Cambridge Audio Azur 350 A Diffusori: Canton Gle 420 Stand: Autocostruiti Tuner: Sony St Jx320l Sorgente Principale: Desktop con Asus Xonar Essence St per musica liquida e GTX 650 WF2 ed. per Dvd/Blu ray e altro HD TV: Panasonic TX-L32E5E

  2. #62
    Data registrazione
    Dec 2006
    Messaggi
    286
    Citazione Originariamente scritto da gxin
    x maabus, Grazie per le info su i van der craaf, la versione non remaster sarà diffiicile da reperire oggi
    Immagino di si, io per fortuna ce li ho perchè comprati da mio padre anni fa, io poi come un pollo ho comprato un paio di remastered che ora li regalo a un amico per il suo compleanno tra 1 mese, tanto c'ha un compattone con cui ascolta musica per lui vanno più che bene

  3. #63
    Data registrazione
    Jul 2002
    Località
    Troppo vicino alla Malpensa
    Messaggi
    788
    Citazione Originariamente scritto da gxin
    x Marco Marangoni
    Ciao, un info: i cd da te citati (la guns, temple of the dog ecc) sono versioni originali o remasters?
    Originali, comprati all'epoca. Non credo esistano i remasters.
    Sono anche due album stupendi, il secondo con un Chris Cornell in gran forma.
    Impianto nelle mani degli alieni di BEN 10

  4. #64
    Data registrazione
    Dec 2006
    Messaggi
    286
    --------------------------------------------------------------------------------
    Analyzed: Bill Conti - Rocky II 1979 (originale non remastered)
    --------------------------------------------------------------------------------

    DR Peak RMS Duration Track
    --------------------------------------------------------------------------------
    DR15 -1.11 dB -19.06 dB 2:34 01-Redemption
    DR14 -1.92 dB -18.60 dB 2:35 02-Gonna Fly Now
    DR13 -2.37 dB -19.21 dB 4:43 03-Conquest
    DR12 -7.04 dB -25.21 dB 6:32 04-Vigil
    DR13 -4.89 dB -21.25 dB 4:00 05-All Of My Life
    DR15 -0.61 dB -18.61 dB 8:38 06-Overture
    DR12 -5.07 dB -20.27 dB 2:37 07-Two Kinds Of Love
    DR15 -6.92 dB -27.03 dB 2:27 08-All Of My Life
    --------------------------------------------------------------------------------

    Number of tracks: 8
    Maximum peak difference (-0.61 dB - -7.04 dB): 6.43 dB

    Official DR value (Song Mode): DR14
    ================================================== ==============================

  5. #65
    Data registrazione
    Dec 2006
    Messaggi
    286
    -----------------------------------------------------------------------------------
    James Newton Howard - James Newton Howard and Friends (Sheffiel Lab)
    -----------------------------------------------------------------------------------

    DR Peak RMS Duration Track
    --------------------------------------------------------------------------------
    DR20 0.00 dB -22.59 dB 3:27 01-Ceasar
    DR21 0.00 dB -22.39 dB 4:17 02-Gone Buttlefishin'
    DR20 0.00 dB -25.52 dB 2:33 03-She
    DR20 0.00 dB -21.53 dB 3:01 04-L'Daddy
    DR20 -6.80 dB -29.54 dB 1:12 05-Tandoori
    DR20 0.00 dB -21.87 dB 4:00 06-Borealis E-Minor Shuffle
    DR20 0.00 dB -23.18 dB 2:56 07-Slippin' Away II
    DR21 0.00 dB -22.79 dB 4:56 08-Amuseum
    --------------------------------------------------------------------------------

    Number of tracks: 8
    Maximum peak difference (0.00 dB - -6.80 dB): 6.80 dB

    Official DR value (Song Mode): DR20
    =============================================

    http://www.youtube.com/watch?v=MNKXHKgICZM

    Fuori concorso

    Ogni volta che riascolto questo disco mi esalto ma mi viene pure il nervoso a pensare il resto dei cd che ascolto in modo indecente.
    Ultima modifica di maabus; 08-05-2011 alle 10:15

  6. #66
    Data registrazione
    Dec 2006
    Messaggi
    286
    --------------------------------------------------------------------------------
    Jeff Healey Band - See The Light 1988
    --------------------------------------------------------------------------------

    DR Peak RMS Duration Track
    --------------------------------------------------------------------------------
    DR12 -2.26 dB -16.10 dB 3:15 01-Confidence Man
    DR12 -2.94 dB -16.28 dB 3:11 02-My Little Girl
    DR13 -1.76 dB -17.75 dB 3:33 03-River Of No Return
    DR14 -1.83 dB -17.68 dB 3:21 04-Don't Let Your Chance Go By
    DR12 -2.91 dB -18.44 dB 5:21 05-Angel Eyes
    DR12 -5.13 dB -19.13 dB 4:50 06-Nice Problem To Have
    DR13 -2.09 dB -16.76 dB 3:29 07-Someday, Someway
    DR15 -0.56 dB -18.20 dB 3:44 08-I Need To Be Loved
    DR14 -2.49 dB -19.18 dB 5:39 09-Blue Jean Blues
    DR12 -3.38 dB -17.33 dB 4:27 10-That's What They Say
    DR14 -2.22 dB -18.23 dB 4:27 11-Hideaway
    DR13 -1.19 dB -16.32 dB 4:26 12-See The Light
    --------------------------------------------------------------------------------

    Number of tracks: 12
    Maximum peak difference (-0.56 dB - -5.13 dB): 4.57 dB

    Official DR value (Song Mode): DR13
    ============================================

  7. #67
    Data registrazione
    Dec 2006
    Messaggi
    286
    --------------------------------------------------------------------------------
    3 - ...To The Power of Three 1988
    --------------------------------------------------------------------------------

    DR Peak RMS Duration Track
    --------------------------------------------------------------------------------
    DR11 -1.81 dB -14.44 dB 4:02 01-Talkin' Bout
    DR11 -1.83 dB -14.85 dB 4:12 02-Lover To Lover
    DR11 -1.65 dB -15.04 dB 3:43 03-Chains
    DR12 -1.57 dB -15.92 dB 7:08 04-Desde La Vida
    DR13 -1.62 dB -16.40 dB 4:11 05-Eight Miles High
    DR12 -1.76 dB -16.40 dB 4:44 06-Runaway
    DR12 -1.92 dB -15.88 dB 5:06 07-You Do or You Don't
    DR12 -1.82 dB -17.35 dB 4:46 08-On My Way Home
    --------------------------------------------------------------------------------

    Number of tracks: 8
    Maximum peak difference (-1.57 dB - -1.92 dB): 0.35 dB

    Official DR value (Song Mode): DR12
    ============================================

    Gutar,Bass,Vocal: Robert Berry
    Keyboard: Keith Emerson
    Drums: Carl Palmer

    http://www.youtube.com/watch?v=bMKURQdNNRE

  8. #68
    Data registrazione
    Dec 2006
    Messaggi
    286
    Altro scempio incredibile................

    Gazie ad un amico che ha comprato la deluxe di quest'album e mi ha detto ascoltala fa paura si sente potentissimo, ho potuto confrontare il mio cd non rimasterizzato con la deluxe, ho preso in esame solo i brani presenti nella versione originale senza le bonus track ed ecco i risultati..........fa paura veramente ma in negativo!

    --------------------------------------------------------------------------------
    Analyzed: Frankie Goes To Hollywood - Liverpool DeLuxe Edition 2011
    --------------------------------------------------------------------------------

    DR Peak RMS Duration Track
    --------------------------------------------------------------------------------
    DR8 0.00 dB -10.89 dB 4:54 01-Warriors Of The Wasteland
    DR9 0.00 dB -10.46 dB 5:07 02-Rage Hard
    DR8 0.00 dB -9.67 dB 6:16 03-Kill The Pain
    DR9 0.00 dB -11.83 dB 5:29 04-Maximum Joy
    DR8 0.00 dB -9.68 dB 4:18 05-Watching The Wildlife
    DR10 0.00 dB -11.50 dB 5:41 06-Lunar Bay
    DR9 0.00 dB -10.15 dB 4:29 07-For Heaven's Sake
    DR10 0.00 dB -12.63 dB 7:27 08-Is Anybody Out There?
    --------------------------------------------------------------------------------

    Number of tracks: 8
    Maximum peak difference (0.00 dB - 0.00 dB): 0.00 dB
    Album Totals:

    Left Right

    Peak Value: 0.00 dB --- 0.00 dB
    Avg RMS: -10.81 dB --- -10.84 dB
    DR channel: 8.56 dB --- 8.57 dB
    --------------------------------------------------------------------------------

    Official DR value (Album Mode): 9
    ============================================




    --------------------------------------------------------------------------------
    Analyzed: Frankie goes to Hollywood - Liverpool 1986
    --------------------------------------------------------------------------------

    DR Peak RMS Duration Track
    --------------------------------------------------------------------------------
    DR16 -0.20 dB -19.07 dB 4:58 01-Warriors of the wastland
    DR13 -1.09 dB -16.38 dB 5:02 02-Rage hard
    DR15 0.00 dB -16.25 dB 6:16 03-Kill the pain
    DR13 -0.04 dB -16.86 dB 5:32 04-Maximum joy
    DR14 0.00 dB -15.89 dB 4:18 05-Whatching the wildlife
    DR17 0.00 dB -18.67 dB 5:41 06-Lunar bay
    DR14 0.00 dB -16.02 dB 4:29 07-For heavens sake
    DR17 0.00 dB -19.70 dB 7:25 08-Is anybody out there?
    --------------------------------------------------------------------------------

    Number of tracks: 8
    Maximum peak difference (0.00 dB - -1.09 dB): 1.09 dB

    Official DR value (Song Mode): DR15
    ============================================



    Ora a parte i numeretti, la deluxe è inascoltabile ad alto volume tanto che le mie B&W gridavano pietà e più di una volta mi sono fermato ed ho abbassato, mentre il cd non rimasterizzato è un piacere ascoltarlo e ti invita ad alzarlo.......il volume.

  9. #69
    Data registrazione
    Apr 2010
    Messaggi
    167
    cmq vedendo la listona linkata a pagina 1,appare evidente la deriva che han preso i produttori e le case discografiche...
    tra un Rust in peace (1990) e un Endgame (2010),sempre dei Megadeth,si passa dai 16db (con punte di 18) a un desolante 6db dell'ultimo album..
    e la stessa cosa accade pure con Iron Maiden,Blind guardian,Dream Theater,Muse e chissà quanti altri
    per quel poco che ho potuto ascoltare oggi cmq,quel dynamic range processor fa davvero miracoli,splendida idea averne recuperato uno
    HDTV plasma Panasonic G20 42" /Sintoampli Marantz SR 5004 + Marantz PM 7003/ Frontali Focal 714v/ Centrale JBL EC25S /Surround Heco Victa 3000/Sub JBL ES150p/ Mysky HD/ PS3 /Xbox 360/Wii /Lettore Blu ray Pioneer BDP 120/lettore CD Denon DCM 500 AE

  10. #70
    Data registrazione
    Dec 2005
    Località
    Reggio Emilia
    Messaggi
    1.681
    Citazione Originariamente scritto da matly-next
    Rust in peace (1990)
    Ce l'ho, in quella specifica edizione, e lo godo parecchio.

    Onestamente mi sono stancato di spendere soldi per CD ultra compressi che poi tanto non ascolto perché appunto, essendo compressi, sull'impianto non si possono sentire. Se devo ascoltare per forza sull'iPhone, preferisco non remunerare il tecnico del suono che ha fatto scempio della musica. D'ora in avanti, acquisterò solo CD d'annata nell'edizione originale, con dynamic range decoroso.
    Video: Pioneer PDP-LX6090 (ISF), Darbee DVP 5000 Sorgente: OPPO BDP-105 Kmod Pre: Krell HTS 7.1 Kmod Finale: Krell TAS Diffusori: front—Dynaudio Confidence C2 cent—Dynaudio Confidence Center MKII surr—Dynaudio Confidence C1 sub—Velodyne DD15 Cavi: segnale—Van den Hul HDMI Ultimate, Thunderline potenza—Van den Hul The NOVA alimentazione—Transparent Reference, MM Trattamento ambientale: Vicoustic Varibass, Flex A50

  11. #71
    Data registrazione
    Apr 2010
    Messaggi
    167
    ce l'ho pure io per questioni meramente anagrafiche
    cmq davvero,se ne trovate uno usato,pigliatevi l'espansore di dinamica
    i 40 euro che ho speso non li rimpiango di certo
    HDTV plasma Panasonic G20 42" /Sintoampli Marantz SR 5004 + Marantz PM 7003/ Frontali Focal 714v/ Centrale JBL EC25S /Surround Heco Victa 3000/Sub JBL ES150p/ Mysky HD/ PS3 /Xbox 360/Wii /Lettore Blu ray Pioneer BDP 120/lettore CD Denon DCM 500 AE

  12. #72
    Data registrazione
    Jan 2010
    Località
    Prato
    Messaggi
    205
    x matly-next
    Ciao, un info: davvero l'espansore di dinamica (per i vecchi lp) funziona anche con cd?


    x ev666il

    Non è detto che rimasterizzare un disco significhi sempre perdita di dinamica (se guardi la lista che ho postato a pag 4 ti rendi conto che alcuni dischi remaster mantengono una dinamica + che accettabile)
    Certo, una buona parte di remaster in vendita sono peggiori rispetto agli originali ma ci sono anche quelli buoni
    Il problema si pone per i dischi che sono usciti dal 2000 in poi (anche 1998) soprattutto nel genere metal e simili (suonano estremamente compressi).
    Certo se uno è legato solo alla musica di qualche tempo fa, fa bene a cercare le edizioni originali, ma se uno ascolta tutto (sia roba vecchia che nuova), per quanto riguarda la muscia uscita ora, si deve accontetare dei cd di oggi
    Hi Fi: Ampli: Cambridge Audio Azur 350 A Diffusori: Canton Gle 420 Stand: Autocostruiti Tuner: Sony St Jx320l Sorgente Principale: Desktop con Asus Xonar Essence St per musica liquida e GTX 650 WF2 ed. per Dvd/Blu ray e altro HD TV: Panasonic TX-L32E5E

  13. #73
    Data registrazione
    Dec 2006
    Messaggi
    286
    Citazione Originariamente scritto da gxin
    x matly-next
    Ciao, un info: davvero l'espansore di dinamica (per i vecchi lp) funziona anche con cd?
    inizio a risponderti io per lui, dato che sono stato il primo a fare questa prova, funziona davvero e i cd diventano finalmente ascoltabili e avrai la possibilità di alzare il volume del tuo amplificatore senza rischiare la rottura dei timpani

  14. #74
    Data registrazione
    Apr 2010
    Messaggi
    167
    confermo,io ne ho recuperato uno dopo aver letto i post di maabus e funziona si
    peccato che siano prodotti che di fatto non vengono più realizzati,ce ne sarebbe un gran bisogno
    HDTV plasma Panasonic G20 42" /Sintoampli Marantz SR 5004 + Marantz PM 7003/ Frontali Focal 714v/ Centrale JBL EC25S /Surround Heco Victa 3000/Sub JBL ES150p/ Mysky HD/ PS3 /Xbox 360/Wii /Lettore Blu ray Pioneer BDP 120/lettore CD Denon DCM 500 AE

  15. #75
    Data registrazione
    Jan 2010
    Località
    Prato
    Messaggi
    205

    ok grazie, proverò a procurarmene uno per fare una prova
    Hi Fi: Ampli: Cambridge Audio Azur 350 A Diffusori: Canton Gle 420 Stand: Autocostruiti Tuner: Sony St Jx320l Sorgente Principale: Desktop con Asus Xonar Essence St per musica liquida e GTX 650 WF2 ed. per Dvd/Blu ray e altro HD TV: Panasonic TX-L32E5E

Pagina 5 di 18 PrimaPrima 12345678915 ... UltimaUltima

Permessi di scrittura

  • Tu NON puoi inviare nuove discussioni
  • Tu NON puoi inviare risposte
  • Tu NON puoi inviare allegati
  • Tu NON puoi modificare i tuoi messaggi
  •