Social Buttons AV Magazine su Facebook AV Magazine su Twitter AV Magazine RSS AV Magazine Newsletter
300 - L'alba di un Impero
300 - L'alba di un Impero
Otto anni dopo 300 il secondo film sull'epico scontro tra Grecia e Persia avvenuto nel 480 A.C. Distribuzione Warner Bros Home Entertainment
Top Vendite HD: agosto 2014
Top Vendite HD: agosto 2014
Classifica dei 10 Blu-ray pi venduti nel mese di agosto, una puntuale elaborazione Univideo su dati GFK che racchiude le maggiori vendite in alta risoluzione dello scorso mese
Grand Budapest Hotel
Grand Budapest Hotel
Dal fine visionario Wes Anderson l'avventura di un originale Concierge, tra gerontofilia e una ricca eredit. Distribuzione 20th Century Fox Home Entertainment
Tutti gli articoli Tutte le news

Pagina 16 di 18 PrimaPrima ... 612131415161718 UltimaUltima
Risultati da 226 a 240 di 263
  1. #226
    Data registrazione
    Jan 2009
    Messaggi
    79

    Ok, grazie.
    Quindi, e chiudo l'OT, posso stare tranquillo sul fatto che una conversione flac->mp3 320cbr dia gli stessi risultati di un ripping cd->mp3 320cbr? E che anche a livello di DR non ci sono cambiamenti apprezzabili rispetto al cd?

  2. #227
    Data registrazione
    Aug 2007
    Localit
    Canavese
    Messaggi
    51
    Ragazzi, ho scaricato il software "TT Dinamic Range Meter" per mac, ma non riesco ad aprire i vari file audio per analizzarli. Un aiutino ?
    Marcello
    --------------------------------------------------
    Imac MC813D/A, Ps Audio PWD + Bridge,
    Exposure XXVIII, Totem Staff,
    Ps Audio GCHA, Akg K701, Sennheiser HD595

  3. #228
    Data registrazione
    Mar 2006
    Localit
    Chieti
    Messaggi
    5.242
    posso stare tranquillo sul fatto che una conversione flac->mp3 320cbr dia gli stessi risultati di un ripping cd->mp3 320cbr?
    Si.

    Ciao.
    Ecco, bisognerebbe prendere a schiaffi gran parte degli audiofili, farli tornare alla realt, tirarli fuori da uno stato ipnotico che dura ormai da troppi anni.

  4. #229
    Data registrazione
    Dec 2009
    Messaggi
    42
    Ecco uno dei miei dischi metal preferiti..

    --------------------------------------------------------------------------------
    Analyzed: Anthrax / Spreading The Disease
    --------------------------------------------------------------------------------

    DR Peak RMS Duration Track
    --------------------------------------------------------------------------------
    DR12 -2.31 dB -16.20 dB 5:45 01-A.I.R.
    DR13 -0.35 dB -15.36 dB 4:38 02-Lone Justice
    DR13 -0.07 dB -14.97 dB 4:20 03-Madhouse
    DR12 -0.63 dB -14.26 dB 4:08 04-S.S.C./Stand Or Fall
    DR12 -0.58 dB -14.20 dB 5:24 05-The Enemy
    DR12 0.00 dB -13.97 dB 4:29 06-Aftershock
    DR13 -0.22 dB -15.00 dB 5:43 07-Armed And Dangerous
    DR13 0.00 dB -14.56 dB 4:44 08-Medusa
    DR12 0.00 dB -14.13 dB 4:41 09-Gung-Ho
    --------------------------------------------------------------------------------

    Number of tracks: 9
    Official DR value: DR12

    Samplerate: 44100 Hz
    Channels: 2
    Bits per sample: 16
    Bitrate: 1411 kbps
    Codec: PCM
    ================================================== ==============================


  5. #230
    Data registrazione
    Dec 2006
    Messaggi
    286


    --------------------------------------------------------------------------------
    Analyzed: Rainbow - Rainbow On Stage 1977/1987 Polygram 823 656-2
    --------------------------------------------------------------------------------

    DR Peak RMS Duration Track
    --------------------------------------------------------------------------------
    DR13 -2.97 dB -17.47 dB 5:32 01-Kill The King
    DR14 -1.80 dB -18.99 dB 11:13 02-Medley: Man On The Silver Mountain - Blues - Starstruck
    DR14 -1.80 dB -19.66 dB 15:36 03-Catch The Rainbow
    DR13 -2.04 dB -19.15 dB 13:03 04-Mistreated
    DR13 -1.80 dB -18.01 dB 7:36 05-Sixteenth Century Greensleeves
    DR12 -1.80 dB -18.36 dB 11:01 06-Still I'm Sad
    --------------------------------------------------------------------------------

    Number of tracks: 6
    Official DR value: DR13

  6. #231
    Data registrazione
    Dec 2006
    Messaggi
    286
    Lunga e bella intervista a barry diament

    un estratto:

    I enjoy loudness when it is appropriate but in my experience, if you want to shake the walls with AC/DC (or with Mahler), the best way to achieve this is with the playback volume control. Any other way, such as arbitrarily increasing the level on the recording itself involves a host of sonic trade-offs. First among them, is the sense of Life that comes from musical dynamics. Since my goals as an engineer are sourced in my love of music, I didn’t want to participate in the ongoing Loudness Wars. All the truly great sounding records and CDs in my collection had much lower average levels than what the majors were releasing. I wanted to preserve all the musical Life in every source I mastered too and never used compression myself. While some say it increases “punch”, the sonic evidence tells a quite different story. Besides, how does one increase punch by reducing dynamics, where the punch “lives”? So, I started accepting only those jobs where the client’s prime interest was the musical presentation and the preservation of musical dynamics.

    Continua qui:

    http://www.audiostream.com/content/q...per-recordings

    e aggiungo quanto c' scritto sul sito del suo studio di registrazione

    A few words about level and musical dynamics:

    A great deal of the emotion in music is the result of how the composer and musicians manipulate their dynamics, both the subtle inflections and the larger overall volume at which they'll play certain musical passages. In order to preserve this component of the performance, the final recorded level on the record must allow for the difference between the quietest moments and the loudest peaks in the music. Rather than dynamically compress the difference between the loudest and softest parts of the music, as is common practice today, we have chosen to leave this intact. This means that Soundkeeper Recordings will play back at an average level that is lower than ordinary records. Many listeners will advance their volume control in order to enjoy the full dynamics of the performance. Please use caution in setting playback volume in order to avoid equipment damage resulting from too loud a signal during the musical peaks. (Remember to return your volume control to a lower setting before playing other records.) With the proper playback level, you will enjoy the dynamics of the performance as determined by the musicians.

    Barry diament.

    http://www.soundkeeperrecordings.com/

    sul sito potete ascoltare anche alcuni sample di album registrati nel suo studio.

  7. #232
    Data registrazione
    Dec 2006
    Messaggi
    286


    --------------------------------------------------------------------------------
    Analyzed: Overhead / Of Sun And Moon 2012
    --------------------------------------------------------------------------------

    DR Peak RMS Duration Track
    --------------------------------------------------------------------------------
    DR6 -0.06 dB -7.45 dB 4:57 01-Lost Inside 2
    DR5 0.00 dB -6.36 dB 4:11 02-Berlin
    DR5 0.00 dB -6.56 dB 5:15 03-An Afternoon Of Sun And Moon
    DR5 -0.14 dB -7.63 dB 5:11 04-Aftermath
    DR5 0.00 dB -6.83 dB 4:05 05-Syriana
    DR6 0.00 dB -8.29 dB 3:38 06-Grotte
    DR5 0.00 dB -8.68 dB 6:17 07-Last Broadcast
    DR5 0.00 dB -6.39 dB 7:46 08-Alive
    DR5 0.00 dB -5.80 dB 7:24 09-Angels And Demons
    --------------------------------------------------------------------------------

    Number of tracks: 9
    Official DR value: DR5

    Bell'album ma......sound mastering ORRIBILE!, inascoltabile anche tramite il mio vecchio processore dinamico, solo l'ultimo album dei wolfmother era riuscito a metterlo in crisi.....ma pure sulle mie vecchissime logitech 2.1 collegate al pc fa schifo, e quindi mi chiedo ma dov' ascoltabile un album masterizzato in questo modo? bho.

    Non capisco come possono farsi distruggere la musica in questo modo, non ci arrivo proprio......... puro masochismo, no so.

  8. #233
    Data registrazione
    Dec 2006
    Messaggi
    286
    Per chi interessato a comprare l'ultimo album degli echolyn, il vinile o la versione rippata dal vinile che vendono su bandcamp.... decisamente migliore del CD, e mi dovrebbero sempre spiegare IL PERCHE' di queste differenzi abissali, ascoltare quest'album da cd e poi cos....cambia totalmente, sono due album diversi pur essendo sempre la stessa musica.....

    --------------------------------------------------------------------------------
    Analyzed:echolyn - 2012 Vinyl Release - FLAC 88.2 kHz24 bit
    --------------------------------------------------------------------------------

    DR Peak RMS Duration Track
    --------------------------------------------------------------------------------
    DR13 0.00 dB -15.33 dB 19:33 ?-side one
    DR13 0.00 dB -16.61 dB 17:05 ?-side two
    DR14 -0.08 dB -18.05 dB 15:56 ?-side three
    DR14 0.00 dB -18.29 dB 18:05 ?-side four
    --------------------------------------------------------------------------------

    Number of tracks: 4
    Official DR value: DR13

    http://echolyn.bandcamp.com/album/ec...882-khz-24-bit

    Mentre la versione CD conciata in questo modo!

    --------------------------------------------------------------------------------
    Analyzed: echolyn - echolyn 2012
    --------------------------------------------------------------------------------

    DR Peak RMS Duration Track
    --------------------------------------------------------------------------------
    DR6 -0.10 dB -8.64 dB 16:38 01-01 Island
    DR7 -0.10 dB -9.41 dB 3:00 02-02 Headright
    DR7 -0.10 dB -9.81 dB 5:11 03-03 Locust to Bethlehem
    DR7 -0.10 dB -10.15 dB 11:54 04-04 Some Memorial
    DR7 -0.10 dB -11.41 dB 7:11 05-05 Past Gravity
    DR8 -0.10 dB -11.17 dB 8:48 06-06 When Sunday Spills
    DR7 -0.10 dB -11.67 dB 10:45 07-07 Speaking in Lampblack
    DR8 -0.10 dB -11.22 dB 7:20 08-08 The Cardinal and I
    --------------------------------------------------------------------------------

    Number of tracks: 8
    Official DR value: DR7

  9. #234
    Data registrazione
    Dec 2006
    Messaggi
    286


    --------------------------------------------------------------------------------
    Analyzed: Afforested - Surviving Remnants Of The Medieval Greenwood 2012 - DR 11
    --------------------------------------------------------------------------------

    DR Peak RMS Duration Track
    --------------------------------------------------------------------------------
    DR11 0.00 dB -12.73 dB 2:02 ?-01 Salthaga
    DR10 0.00 dB -12.87 dB 3:16 ?-02 The Commoner's Right Of Pannage
    DR11 0.00 dB -13.79 dB 3:03 ?-03 To Freedom On A Palomino Palfrey
    DR11 0.00 dB -13.29 dB 3:06 ?-04 Cloudesley's Unbeatable Aim
    DR12 0.00 dB -13.97 dB 1:44 ?-05 As He Flew From The Trysting Tree With A Yaffleing Call
    DR12 0.00 dB -14.79 dB 4:03 ?-06 Sir Fouke's Old Haunt
    DR10 0.00 dB -15.48 dB 6:59 ?-07 Leaving Barnsdale For The Last Time
    DR11 0.00 dB -12.71 dB 3:48 ?-08 Gamelyn's New Crown
    DR11 0.00 dB -13.31 dB 3:00 ?-09 Another Game Of Pluck Buffet
    DR9 0.00 dB -10.69 dB 1:22 ?-10 If I, From An Oak Apple, Had Emerged
    DR10 0.00 dB -13.05 dB 3:16 ?-11 The Fallow Faun And The Mogshade Of June
    DR15 0.00 dB -18.41 dB 2:04 ?-12 Eadric The Wild
    --------------------------------------------------------------------------------

    Number of tracks: 12
    Official DR value: DR11

    Ascoltabile e Acquistabile da qui

    http://afforested.bandcamp.com
    Immagini allegate Immagini allegate

  10. #235
    Data registrazione
    May 2006
    Localit
    Modena
    Messaggi
    2.210
    C' qualcuno che ha provato il dbx 3bx che se ben ricordo faceva meraviglie come espansore di dinamica?
    Scomed99 HT: PLASMA: Kuro 5090H - PRE: McIntosh MX136 - LETTORE CD/SACD: McIntosh MCD301 - FINALE MULTI: Powersoft DIGIMOD Series - FRONT: MegaHorn - CENTER: BlackOne - BACK: BlackBack - SUB:2X The BlackReign + 1x The BlackHammer - BASS SHAKER: Brutality Near Sub ROOM EQ:ScomeDSP + Open DRC + Sabre32 DAC - DYNAMIC EXPANDER: dbx 3bx DS + dbx 120x DS + SPL Vitalizer MK2T - CONSOLE: XBOX 360 Elite - HTPC: S-HTPC

  11. #236
    Data registrazione
    Dec 2006
    Messaggi
    286


    --------------------------------------------------------------------------------
    Analyzed: The Anabasis - Back From Being Gone 2011
    --------------------------------------------------------------------------------

    DR Peak RMS Duration Track
    --------------------------------------------------------------------------------
    DR12 -0.17 dB -14.41 dB 14:14 01-Rome
    DR13 -0.19 dB -15.06 dB 6:50 02-Fly
    DR10 -0.16 dB -11.29 dB 5:48 03-Carpe Diem
    DR10 -0.16 dB -12.45 dB 17:29 04-Vikings
    DR11 -0.17 dB -13.26 dB 5:57 05-Epiphany
    DR11 -0.13 dB -12.82 dB 23:53 06-Egypt
    --------------------------------------------------------------------------------

    Number of tracks: 6
    Official DR value: DR11

    Mastered by Bob Katz

    Ascoltabile in streaming da qui

    http://10trecords.com/artists/genres...s-discography/

  12. #237
    Data registrazione
    Sep 2012
    Messaggi
    1
    foobar2000 1.1.15 / Dynamic Range Meter 1.1.1
    log date: 2012-09-25 21:47:17

    --------------------------------------------------------------------------------
    Analyzed: Sting / Sacred love (2003)
    --------------------------------------------------------------------------------

    DR Peak RMS Duration Track
    --------------------------------------------------------------------------------
    DR7 -0.13 dB -9.45 dB 4:48 01-CD Track 01
    DR9 -0.12 dB -10.73 dB 4:38 02-CD Track 02
    DR7 -0.11 dB -10.50 dB 5:28 03-CD Track 03
    DR7 -0.12 dB -9.46 dB 5:44 04-CD Track 04
    DR7 -0.13 dB -8.38 dB 5:00 05-CD Track 05
    DR6 -0.11 dB -7.47 dB 3:58 06-CD Track 06
    DR8 -0.13 dB -9.59 dB 5:13 07-CD Track 07
    DR6 -0.11 dB -7.51 dB 5:31 08-CD Track 08
    DR9 -0.12 dB -12.37 dB 6:16 09-CD Track 09
    DR7 -0.12 dB -8.94 dB 6:02 10-CD Track 10
    DR5 -0.13 dB -6.35 dB 3:18 11-CD Track 11
    DR12 -0.18 dB -16.06 dB 2:19 12-CD Track 12
    --------------------------------------------------------------------------------

    Number of tracks: 12
    Official DR value: DR8

    Samplerate: 44100 Hz
    Channels: 2
    Bits per sample: 16
    Bitrate: 1411 kbps
    Codec: CDDA
    ================================================== ==============================


    Questo un disco che ha quasi dieci anni...
    Ma alla fine uno per ascoltare questi cd decentemente cosa deve fare?

    Steve

  13. #238
    Data registrazione
    Jan 2009
    Messaggi
    79
    Ma proprio sicuro che il pompaggio in masterizzazione non giova mai ad un album? Di nessun genere musicale?
    Qualcuno ascolta i Radiohead? Cosa ne pensate delle loro incisioni sempre con range basso?
    L'elettronica, invece, non pu avere range alto, perche i suoni sono campioni?
    Ultima modifica di Deki; 14-10-2012 alle 21:24

  14. #239
    Data registrazione
    Mar 2011
    Localit
    Vicenza
    Messaggi
    742
    buongiorno ragazzi!
    ho installato il programma con il plug-in,ma mi dice questo
    This foobar2000 component has an expiration date set to 1 September 2011. Around this date the Pleasurize Music Foundation has planned an update for the Dynamic Range Meters and the foobar2000 component. These releases will have an updated algorithm for the DR metering.

    Please update this component. The latest information can be found on the website www.pleasurizemusic.com.
    cosa dovrei fare?
    grazie in anticipo
    B&W 804S,ROTEL RB-1582/RC-1580,Pioneer PD-50S, VSX-LX55,FOCAL CC800V, B&W DM603,, Diezel VH4-Mesa Recto 2x12,PS3,Samsung UE40D6500
    cavo alimentazione:furutech.cavi segnale:audioquest king cobra-thender,cavi potenza:viablu sc4silver

  15. #240
    Data registrazione
    Dec 2006
    Messaggi
    286

    ciao frantic, scaricalo da qui http://www.jokhan.demon.nl/DynamicRange/index.htm

Pagina 16 di 18 PrimaPrima ... 612131415161718 UltimaUltima

Permessi di scrittura

  • Tu NON puoi inviare nuove discussioni
  • Tu NON puoi inviare risposte
  • Tu NON puoi inviare allegati
  • Tu NON puoi modificare i tuoi messaggi
  •