Social Buttons AV Magazine su Facebook AV Magazine su Twitter AV Magazine RSS AV Magazine Newsletter
Dallas Buyers Club
Dallas Buyers Club
In alta definizione la vera storia di Ron Woodroof e della sua lotta all'AIDS, film vincitore di tre premi Oscar. Distribuzione del Blu-ray curata da Koch Media
Mary Poppins
Mary Poppins
La magica tata nata dalla fantasia e dalle esperienze di vita della romanziera P.L. Travers nella prima edizione in HD. Distribuzione Walt Disney Studios HE
Nebraska
Nebraska
Prosegue la dura riflessione su famiglia e divario generazionale dallo stesso regista di Paradiso amaro. Distribuzione CG Home Video per Lucky Red
Tutti gli articoli Tutte le news

Risultati da 1 a 7 di 7
  1. #1
    Data registrazione
    Apr 2011
    Messaggi
    12

    MKVToolnix - Quale esatta versione ??


    Ciao ragazzi...... vi faccio una domanda!
    Ho a disposizione qualche file Mp4.......... uno dei tanti questo e il MediaInfo dice:
    Codice:
    General
    Complete name                            : WWE.Friday.Night.Smackdown.21st.Oct.2011.HDTV.XviD-Sir.Paul.AVI
    Format                                   : AVI
    Format/Info                              : Audio Video Interleave
    File size                                : 792 MiB
    Duration                                 : 1h 27mn
    Overall bit rate                         : 1 260 Kbps
    
    Video
    ID                                       : 0
    Format                                   : AVC
    Format/Info                              : Advanced Video Codec
    Format profile                           : Main@L4.1
    Format settings, CABAC                   : Yes
    Format settings, ReFrames                : 2 frames
    Codec ID                                 : H264
    Duration                                 : 1h 27mn
    Bit rate                                 : 68.8 Kbps
    Width                                    : 624 pixels
    Height                                   : 352 pixels
    Display aspect ratio                     : 16:9
    Frame rate                               : 25.000 fps
    Color space                              : YUV
    Chroma subsampling                       : 4:2:0
    Bit depth                                : 8 bits
    Scan type                                : Progressive
    Bits/(Pixel*Frame)                       : 0.013
    Stream size                              : 43.2 MiB (5%)
    
    Audio
    ID                                       : 1
    Format                                   : MPEG Audio
    Codec ID                                 : 55
    Codec ID/Hint                            : MP3
    Duration                                 : 1h 27mn
    Bit rate                                 : 128 Kbps
    Channel(s)                               : 2 channels
    Sampling rate                            : 48.0 KHz
    Compression mode                         : Lossy
    Stream size                              : 80.4 MiB (10%)
    Alignment                                : Aligned on interleaves
    Durante la riproduzione l'audio va in clip in continuazione come se fosse tutto tagliuzzato mentre il video viene riprodotto perfettamente!
    Il mio player multimediale una merda... cio un Mediacom Myshow HD (quindi il Memup NX HD tanto la stessa cosa!) e fino ad un p di tempo f avevo la soluzione:
    In pratica mi bastava rimuxare i suddetti .mp4 con un'esatta versione dell'MVKtoolnix poi nel player usare l'mkv e tutto si risolveva.. niente clip audio e la sincronia audio/video restava perfetta.

    Il problema principale che ho cambiato pc e nell'altro mi aveva lasciato l'hd perdendo parecchia roba...... tra cui quella esatta versione dell'MkvToolnix ed ora ho provato a prendere l'ultima versione la 5.1.0 ma l'mkv non lo apre per niente!

    Come faccio a sapere quale versione mi potrebbe servire ?? Devo andare a tentativi oppure qualcuno sa aiutarmi ?

  2. #2
    Data registrazione
    Oct 2011
    Messaggi
    546
    Installa MKVMerge versione 4.1.1 .

  3. #3
    Data registrazione
    Apr 2011
    Messaggi
    12
    per ora sto usando la 2.6.0..... prover la 4.1.1 se c' la versione portabile.....

    Codice:
    http://www.bunkus.org/videotools/mkvtoolnix/win32/mkvtoolnix-unicode-4.1.1.7z
    Dovrebbe esser questa.... la provo e ti faccio sapere

    *EDIT*
    Quelli che passo fino ad ora con la 2.6.0 si aprono....... per l'audio molto basso rispetto all'mp4 (che come detto per si sente male)...... chi sa se usando questa 4.1.1 tale problema si risolve ?
    Magari con un secondo edit pi tardi ti faccio sapere se tutto funziona e cosa ottengo.... sto muxando questo ora:
    Codice:
    General
    Complete name                            : F:\JDownloader Download\WWE.Friday.Night.Smackdown.28th.Oct.2011.PDTV.x264-Sir.Paul.AVI
    Format                                   : AVI
    Format/Info                              : Audio Video Interleave
    File size                                : 755 MiB
    Duration                                 : 1h 23mn
    Overall bit rate                         : 1 267 Kbps
    
    Video
    ID                                       : 0
    Format                                   : AVC
    Format/Info                              : Advanced Video Codec
    Codec ID                                 : H264
    Duration                                 : 1h 23mn
    Bit rate                                 : 1 131 Kbps
    Width                                    : 624 pixels
    Height                                   : 352 pixels
    Display aspect ratio                     : 16:9
    Frame rate                               : 25.000 fps
    Color space                              : YUV
    Chroma subsampling                       : 4:2:0
    Bits/(Pixel*Frame)                       : 0.206
    Stream size                              : 674 MiB (89%)
    
    Audio
    ID                                       : 1
    Format                                   : MPEG Audio
    Codec ID                                 : 55
    Codec ID/Hint                            : MP3
    Duration                                 : 1h 23mn
    Bit rate                                 : 128 Kbps
    Channel(s)                               : 2 channels
    Sampling rate                            : 48.0 KHz
    Compression mode                         : Lossy
    Stream size                              : 76.3 MiB (10%)
    Alignment                                : Aligned on interleaves
    Interleave, duration                     : 200 ms (5.00 video frames)
    Interleave, preload duration             : 190 ms
    E appunto usando L'mkvtoolnix nelle 2 versioni.. 2.6.0 e 4.1.1 ovviamente prima selezionando l'eseguibile dell'mkvmerge dalle apposite cartelle ho ottenuto questi due:
    Codice:
    General
    Unique ID                                : 249862281908831830541872025614609587718 (0xBBF9B99E31ECCC70B5A7079E69EC9E06)
    Complete name                            : I:\2.6.0-WWE.Friday.Night.Smackdown.28th.Oct.2011.PDTV.x264-Sir.Paul.mkv
    Format                                   : Matroska
    Format version                           : Version 1
    File size                                : 752 MiB
    Duration                                 : 1h 23mn
    Overall bit rate                         : 1 261 Kbps
    Encoded date                             : UTC 2011-10-29 20:06:40
    Writing application                      : mkvmerge v2.6.0 ('Kelly watch the Stars') built on Mar 24 2009 15:23:17
    Writing library                          : libebml v0.7.7 + libmatroska v0.8.1
    
    Video
    ID                                       : 1
    Format                                   : AVC
    Format/Info                              : Advanced Video Codec
    Format profile                           : Main@L4.1
    Format settings, CABAC                   : Yes
    Format settings, ReFrames                : 2 frames
    Codec ID                                 : V_MPEG4/ISO/AVC
    Duration                                 : 1h 23mn
    Bit rate                                 : 1 108 Kbps
    Width                                    : 624 pixels
    Height                                   : 352 pixels
    Display aspect ratio                     : 16:9
    Frame rate                               : 25.000 fps
    Color space                              : YUV
    Chroma subsampling                       : 4:2:0
    Bit depth                                : 8 bits
    Scan type                                : Progressive
    Bits/(Pixel*Frame)                       : 0.202
    Stream size                              : 661 MiB (88%)
    
    Audio
    ID                                       : 2
    Format                                   : MPEG Audio
    Format version                           : Version 1
    Format profile                           : Layer 3
    Mode                                     : Joint stereo
    Mode extension                           : MS Stereo
    Codec ID                                 : A_MPEG/L3
    Codec ID/Hint                            : MP3
    Duration                                 : 1h 23mn
    Bit rate mode                            : Constant
    Bit rate                                 : 128 Kbps
    Channel(s)                               : 2 channels
    Sampling rate                            : 48.0 KHz
    Compression mode                         : Lossy
    Stream size                              : 76.3 MiB (10%)
    e quest'altro appunto:
    Codice:
    General
    Unique ID                                : 232598994980921253422311505360272886443 (0xAEFCEFDBBF110D5684715CA554AA0AAB)
    Complete name                            : I:\4.1.1-WWE.Friday.Night.Smackdown.28th.Oct.2011.PDTV.x264-Sir.Paul.mkv
    Format                                   : Matroska
    Format version                           : Version 2
    File size                                : 751 MiB
    Duration                                 : 1h 23mn
    Overall bit rate                         : 1 260 Kbps
    Encoded date                             : UTC 2011-10-29 20:13:46
    Writing application                      : mkvmerge v4.1.1 ('Bouncin' Back') built on Jul  3 2010 22:54:08
    Writing library                          : libebml v1.0.0 + libmatroska v1.0.0
    
    Video
    ID                                       : 1
    Format                                   : AVC
    Format/Info                              : Advanced Video Codec
    Format profile                           : Main@L4.1
    Format settings, CABAC                   : Yes
    Format settings, ReFrames                : 2 frames
    Codec ID                                 : V_MPEG4/ISO/AVC
    Duration                                 : 1h 23mn
    Bit rate                                 : 1 106 Kbps
    Width                                    : 624 pixels
    Height                                   : 352 pixels
    Display aspect ratio                     : 16:9
    Frame rate                               : 25.000 fps
    Color space                              : YUV
    Chroma subsampling                       : 4:2:0
    Bit depth                                : 8 bits
    Scan type                                : Progressive
    Bits/(Pixel*Frame)                       : 0.201
    Stream size                              : 660 MiB (88%)
    
    Audio
    ID                                       : 2
    Format                                   : MPEG Audio
    Format version                           : Version 1
    Format profile                           : Layer 3
    Mode                                     : Joint stereo
    Mode extension                           : MS Stereo
    Muxing mode                              : Header stripping
    Codec ID                                 : A_MPEG/L3
    Codec ID/Hint                            : MP3
    Duration                                 : 1h 23mn
    Bit rate mode                            : Constant
    Bit rate                                 : 128 Kbps
    Channel(s)                               : 2 channels
    Sampling rate                            : 48.0 KHz
    Compression mode                         : Lossy
    Stream size                              : 76.3 MiB (10%)
    Vi faccio appunto sapere cosa ho ottenuto........
    Ultima modifica di DjDiabolik; 29-10-2011 alle 21:18

  4. #4
    Data registrazione
    Apr 2011
    Messaggi
    12
    allora... vi aggiorno sulla situazione.. il player che ho questo:
    http://www.mediacomeurope.it/Prodott....aspx?XRI=1701

    Il file .mkv creato dall'mkv toolnix 4.1.1 per l'appunto non lo apre........ nel senso lo avvio... dice "Riproduzione" ma lo schermo rimane tutto nero e dopo 5 o 6 secondi mi ritorna al men della lista dei file!

    Capisco che questo player uno schifo... ma perch i file che faccio con la versione 2.6.0 vanno e questi fatti con la 4.1.1 non si aprono ?
    Cosa hanno di differente i due file ??

    E come faccio a sapere se la 2.6.0 l'ultima versione che posso usare ?

    E sopratutto... perch il file sorgente mp4 viene riprodotto con l'audio come se fosse tagliuzzato ?

  5. #5
    Data registrazione
    May 2011
    Localit
    Monza
    Messaggi
    127
    Nelle ultime versioni di MKVmerge hanno aggiunto un'opzione nuova che devi disabilitare se non riesci ad aprire i files.
    Esattamente prova a creare un mkv dopo aver messo la spunta nel men opzioni alla voce "disable header removal compression..."

  6. #6
    Data registrazione
    Apr 2011
    Messaggi
    12
    grande posso provare.......... quindi tu dici che togliendo questa opzione posso anche usare l'ultimissima versione disponibile ?

    Perch obbiettivamente se questo non codifica ma fa solo il mux non vedo perch se uso la 2.6.0 l'mkv va mentre se uso altre versioni (per ora ne ho provate 3 o 4 diverse) non va e il file non si apre

    Faccio un'ulteriore prova con l'ultima versione e provo a cercare questa voce che dici tu

    Vado un p OT con questa richiesta:
    Sentite un p.......... siccome per le varie versioni sto usando la versione portable..... ho notato se ad esempio avvio la 2.6.0 e imposto il PATH dell'MKVmerge.exe poi se esco dal programma e per esempio avvio un'altra versione diversa se non vado a rimodificare il path l'mkvmerge.exe usato sempre lo stesso quando invece dovrebbe cambiare in base alla versione avviata.

    In pratica... c' un modo per far si che il programma usi diverse configurazioni ?

    *EDIT*
    Dov' che questo "Disable header ecc. ecc." di preciso ?
    Perch sto vedendo nelle opzioni.. nel tab "mmg" e non c'.... avviando la versione 4.1.1.

    *EDIT 2a parte*
    Sulla versione 5.0.1 (che addirittura si pu settare in italiano e quindi diventa "Compressione intestazione tracce audio e video disabilita ecc. ecc.) questa opzione c'
    Prover a fare un mkv con quella opzione attivata e vi faccio sapere domani se l'mkv si apre e se si apre come si vede

    P.S. Se mi risolve il problema dell'audio che si abbassa non saprei come ringraziarvi anche perch devo mettere la TV a tutto volume per sentire quando invece con l'mp4 originale non serve e non capisco perch....
    Ultima modifica di DjDiabolik; 02-11-2011 alle 02:27

  7. #7
    Data registrazione
    Apr 2011
    Messaggi
    12

    Allora ragazzi questo il file che ho fatto ieri sera con quella opzione disabilitata:
    Codice:
    General
    Unique ID                                : 229738820815563007676134988611445136948 (0xACD616627293AC78BEF285350F591E34)
    Complete name                            : I:\5.0.1-WWE.Friday.Night.Smackdown.28th.Oct.2011.PDTV.x264-Sir.Paul.mkv
    Format                                   : Matroska
    Format version                           : Version 2
    File size                                : 751 MiB
    Duration                                 : 1h 23mn
    Overall bit rate                         : 1 260 Kbps
    Encoded date                             : UTC 2011-11-02 02:32:24
    Writing application                      : mkvmerge v5.0.1 ('Es ist Sommer') built on Oct  9 2011 11:55:43
    Writing library                          : libebml v1.2.2 + libmatroska v1.3.0
    
    Video
    ID                                       : 1
    Format                                   : AVC
    Format/Info                              : Advanced Video Codec
    Format profile                           : Main@L4.1
    Format settings, CABAC                   : Yes
    Format settings, ReFrames                : 2 frames
    Codec ID                                 : V_MPEG4/ISO/AVC
    Duration                                 : 1h 23mn
    Bit rate                                 : 1 107 Kbps
    Width                                    : 624 pixels
    Height                                   : 352 pixels
    Display aspect ratio                     : 16:9
    Frame rate                               : 25.000 fps
    Color space                              : YUV
    Chroma subsampling                       : 4:2:0
    Bit depth                                : 8 bits
    Scan type                                : Progressive
    Bits/(Pixel*Frame)                       : 0.202
    Stream size                              : 660 MiB (88%)
    
    Audio
    ID                                       : 2
    Format                                   : MPEG Audio
    Format version                           : Version 1
    Format profile                           : Layer 3
    Mode                                     : Joint stereo
    Mode extension                           : MS Stereo
    Codec ID                                 : A_MPEG/L3
    Codec ID/Hint                            : MP3
    Duration                                 : 1h 23mn
    Bit rate mode                            : Constant
    Bit rate                                 : 128 Kbps
    Channel(s)                               : 2 channels
    Sampling rate                            : 48.0 KHz
    Compression mode                         : Lossy
    Stream size                              : 76.3 MiB (10%)
    Ma non ha portato a risultati........... quella ciofeca di lettore col suo Sigma + ciofeca del lettore stesso non ne vuol sapere di aprirlo:
    Lo seleziono dalla lista dei file........ dice in alto a destra "RIPRODUZIONE" che scompare dopo un p... lo schermo della TV rimane nero e dopo 5 o 6 secondi mi ritrovo all'elenco dei file!
    Nessun errore... nessun messaggio.. nessun cenno..........

    In pratica... dal file fatto con la versione 2.6.0 e questo (o quello fatto con la 4.1.1) fatto con l'ultima 5.0.1 che cosa cambia ??
    Se vero che fa solo il muxing e non reincodizza... perch uno parte e l'altro no ?

Permessi di scrittura

  • Tu NON puoi inviare nuove discussioni
  • Tu NON puoi inviare risposte
  • Tu NON puoi inviare allegati
  • Tu NON puoi modificare i tuoi messaggi
  •